extratorrent - A Fan Made Alternative Login   |   Register
Important Information
Registrations are open now
-------------------------------------

Please click here to register with Extratorrent2 to recieve latest updates, add bookmarks and to post comments.

Friends
Friends

1) ProxyFix

Extratorrent2 > Categories > Anime > [60mbAnime.com] One Piece - 855 [480p] [EngSub] torrent


Browse Anime torrents

[60mbAnime.com] One Piece - 855 [480p] [EngSub] torrent


Download torrent: Download [60mbAnime.com] One Piece - 855 [480p] [EngSub] torrent Magnet link Bookmark Torrent: [60mbAnime.com] One Piece - 855 [480p] [EngSub]   [60mbAnime.com] One Piece - 855 [480p] [EngSub] torrent
Info hash: 0F47CD3A70D32C3E4557CD644DC770AC1E98F6AA
Category: Categories > Anime
Trackers:
View all torrent trackers >
Health:
 seeds: 0 ,  leechers: 1 |  Update >
Torrent language: Japanese Japanese
Total Size: 228.2 MB
Files List:
1    View torrent files >
Uploader:
60mbAnime
Torrent added: October 28, 2018, 4:30 am
Users rating: ---, not rated. please login to rate.

Download [60mbAnime.com] One Piece - 855 [480p] [EngSub] torrent



Torrent Description



General

Complete name : [60mbAnime.com] One Piece - 855 [480p] [EngSub].mkv
Format : Matroska
Format version : Version 4
File size : 228 MiB
Duration : 23 min 55 s
Overall bit rate : 1 334 kb/s
Encoded date : UTC 2010-02-22 21:41:29
Writing application : no_variable_data
Writing library : no_variable_data
Attachments : OpenSans-Semibold.ttf

Video
ID : 1
Format : AVC
Format/Info : Advanced Video Codec
Format profile :
Format settings : CABAC / 6 Ref Frames
Format settings, CABAC : Yes
Format settings, RefFrames : 6 frames
Codec ID : V_MPEG4/ISO/AVC
Duration : 23 min 55 s
Bit rate : 1 234 kb/s
Width : 848 pixels
Height : 480 pixels
Display aspect ratio : 16:9
Frame rate mode : Constant
Frame rate : 23.976 (24000/1001) FPS
Color space : YUV
Chroma subsampling : 4:2:0
Bit depth : 8 bits
Scan type : Progressive
Bits/(Pixel*Frame) : 0.126
Stream size : 211 MiB (93%)
Writing library : x264 core 142
Encoding settings : cabac=1 / ref=6 / deblock=1:1:1 / analyse=0x1:0x111 / me=umh / subme=8 / psy=1 / psy_rd=0.40:0.00 / mixed_ref=1 / me_range=16 / chroma_me=1 / trellis=1 / 8x8dct=0 / cqm=0 / deadzone=21,11 / fast_pskip=1 / chroma_qp_offset=-2 / threads=6 / lookahead_threads=1 / sliced_threads=0 / nr=0 / decimate=1 / interlaced=0 / bluray_compat=0 / constrained_intra=0 / bframes=5 / b_pyramid=2 / b_adapt=2 / b_bias=0 / direct=3 / weightb=1 / open_gop=0 / weightp=2 / keyint=48 / keyint_min=25 / scenecut=0 / intra_refresh=0 / rc_lookahead=48 / rc=crf / mbtree=1 / crf=17.0 / qcomp=0.60 / qpmin=0 / qpmax=69 / qpstep=4 / vbv_maxrate=2000 / vbv_bufsize=3000 / crf_max=0.0 / nal_hrd=none / filler=0 / ip_ratio=1.40 / aq=1:0.60
Default : Yes
Forced : No

Audio
ID : 2
Format : AAC LC
Format/Info : Advanced Audio Codec Low Complexity
Codec ID : A_AAC-2
Duration : 23 min 55 s
Bit rate : 96.0 kb/s
Channel(s) : 2 channels
Channel layout : L R
Sampling rate : 44.1 kHz
Frame rate : 43.066 FPS (1024 SPF)
Compression mode : Lossy
Delay relative to video : -83 ms
Stream size : 16.4 MiB (7%)
Language : Japanese
Default : Yes
Forced : No

Text
ID : 3
Format : ASS
Codec ID : S_TEXT/ASS
Codec ID/Info : Advanced Sub Station Alpha
Duration : 23 min 35 s
Bit rate : 95 b/s
Count of elements : 251
Compression mode : Lossless
Stream size : 16.6 KiB (0%)
Language : English
Default : Yes
Forced : No


Download [60mbAnime.com] One Piece - 855 [480p] [EngSub] torrent


Related Torrents


Comments   (please login to add your comment!)

iobit     fontes     trains     pornoromance     cave     bang real teen     dual audio     stepdaughter     ass sister     raja the great     professional plus     veronica leal     4videosoft mkv     older     colombian     brazzers amirah adara     hollywood ending     monster pussy     hairdresser     summer xxx     pool side service     hardxx     a million ways     p2pdl     


Home - Browse Torrents

Made with love by an Extratorrent Fan!