extratorrent - A Fan Made Alternative Login   |   Register
Important Information
Registrations are open now
-------------------------------------

Please click here to register with Extratorrent2 to recieve latest updates, add bookmarks and to post comments.

Friends
Friends

1) ProxyFix

Extratorrent2 > Categories > Movies > Legal.Action.2018.HDRip.XviD.AC3.With.Sample.LLG torrent


Browse Movies torrents

Legal.Action.2018.HDRip.XviD.AC3.With.Sample.LLG torrent


Download torrent: Download Legal.Action.2018.HDRip.XviD.AC3.With.Sample.LLG torrent Magnet link Bookmark Torrent: Legal.Action.2018.HDRip.XviD.AC3.With.Sample.LLG   Legal.Action.2018.HDRip.XviD.AC3.With.Sample.LLG torrent
Info hash: 56E436EBB837A8384C542AC8C9BBB70E242EDC30
Category: Categories > Movies
Trackers:
View all torrent trackers >
Health:
 seeds: 2 ,  leechers: 3 |  Update >
Torrent language: English English
Total Size: 1.0 GB
Files List:
2    View torrent files >
Uploader:
LifeLongg
Torrent added: November 11, 2018, 4:30 pm
Tags: Legal, Action, 2018, HDRip, Action, Western
Users rating: ---, not rated. please login to rate.

Download Legal.Action.2018.HDRip.XviD.AC3.With.Sample.LLG torrent



Torrent Description



******************************Thumbnail:**********************



******************************Screenshots:********************

Screenshot 1

Screenshot 2

Screenshot 3

Screenshot 4

Screenshot 5

Screenshot 6

Screenshot 7

Screenshot 8

Screenshot 9

Screenshot 0

************************************************************

Legal.Action.2018.HDRip.XviD.AC3.With.Sample.LLG.mp4
Format : MPEG-4
Format profile : Base Media
Codec ID : isom (isom/iso2/avc1/mp41)
File size : 1.00 GiB
Duration : 1 h 37 min
Overall bit rate : 1 474 kb/s
Writing application : Lavf57.56.101

Video
ID : 1
Format : AVC
Format/Info : Advanced Video Codec
Format profile :
Format settings : CABAC / 4 Ref Frames
Format settings, CABAC : Yes
Format settings, RefFrames : 4 frames
Codec ID : avc1
Codec ID/Info : Advanced Video Coding
Duration : 1 h 37 min
Bit rate : 1 200 kb/s
Width : 720 pixels
Height : 400 pixels
Display aspect ratio : 16:9
Frame rate mode : Constant
Frame rate : 23.976 (23976/1000) FPS
Color space : YUV
Chroma subsampling : 4:2:0
Bit depth : 8 bits
Scan type : Progressive
Bits/(Pixel*Frame) : 0.174
Stream size : 846 MiB (82%)


Audio
ID : 2
Format : AC-3
Format/Info : Audio Coding 3
Commercial name : Dolby Digital
Codec ID : ac-3
Duration : 1 h 37 min
Bit rate mode : Constant
Bit rate : 256 kb/s
Channel(s) : 6 channels
Channel layout : L R C LFE Ls Rs
Sampling rate : 48.0 kHz
Frame rate : 31.250 FPS (1536 SPF)
Bit depth : 16 bits
Compression mode : Lossy
Stream size : 179 MiB (17%)
Service kind : Complete Main
Default : Yes
Alternate group : 1


********************************************************


Download Legal.Action.2018.HDRip.XviD.AC3.With.Sample.LLG torrent


Related Torrents


Comments   (please login to add your comment!)

corbin     sleeping dogs     teen gangbang     julie kay     strong hold     nightmare     blindspot s01e14     hindi english 2003     2017 tamil hindi     xxx s     quantum     1545     christiana cinn     11 11     robot 1080p     18 la femme nikita 1990 dual     clubsandy     wwe elimination chamber 2017     luv     wrong house jab     westworld 1080p 10bit     van morrison     tsplayground nan     femjoy imageset     


Home - Browse Torrents

Made with love by an Extratorrent Fan!