extratorrent - A Fan Made Alternative Login   |   Register
Important Information
Registrations are open now
-------------------------------------

Please click here to register with Extratorrent2 to recieve latest updates, add bookmarks and to post comments.

Friends
Friends

1) ProxyFix

Extratorrent2 > Categories > Anime > Miss Kobayashi's Dragon Maid_BD720p_English Subbed_(HEVC_10bit_SmoodFlamez) torrent


Browse Anime torrents

Miss Kobayashi's Dragon Maid_BD720p_English Subbed_(HEVC_10bit_SmoodFlamez) torrent


Download torrent: Download Miss Kobayashi's Dragon Maid_BD720p_English Subbed_(HEVC_10bit_SmoodFlamez) torrent Magnet link Bookmark Torrent: Miss Kobayashi's Dragon Maid_BD720p_English Subbed_(HEVC_10bit_SmoodFlamez)   Miss Kobayashi's Dragon Maid_BD720p_English Subbed_(HEVC_10bit_SmoodFlamez) torrent
Info hash: 5B490BF5AC37B2EF28E859B44A343FFCF825BF59
Category: Categories > Anime
Trackers:
View all torrent trackers >
Health:
 seeds: 6 ,  leechers: 3 |  Update >
Torrent language: Japanese Japanese
Total Size: 2.3 GB
Files List:
23    View torrent files >
Uploader:
smoodflamez
Torrent added: October 30, 2018, 4:30 am
Users rating: ---, not rated. please login to rate.

Download Miss Kobayashi's Dragon Maid_BD720p_English Subbed_(HEVC_10bit_SmoodFlamez) torrent



Torrent Description

Title
Miss Kobayashi’s Dragon Maid

Source
Dmonhiro

Storyline
Kobayashi lives alone in an apartment, until one day, Tohru appeared and they ended up living together. Kyobashi unintentionally found Tohru while walking home from being drunk, and asks her to come over. Tohru looks down on humans as inferior and foolish, but having been saved by Kobayashi, she does everything she can to repay the debt and help her with various things, although not everything goes according to plan. A mythical everyday life comedy about a hard working office lady living with a dragon girl ensues a slice of life animated show.

Details
Official Sites: Official site [Japan] | Offiical Twitter [Japan]
Country: Japan
Language: Japanese | English
Release Date: January 2017 (Japan)

MediaInfo

Video
ID : 1
Format : HEVC
Format/Info : High Efficiency Video Coding
Format profile : Main @Main
Codec ID : V_MPEGH/ISO/HEVC
Duration : 24 min 5 s
Width : 1 280 pixels
Height : 720 pixels
Display aspect ratio : 16:9
Frame rate mode : Constant
Frame rate : 23.976 (24000/1001) FPS
Color space : YUV
Chroma subsampling : 4:2:0
Bit depth : 10 bits

Audio
ID : 2
Format : AAC LC SBR
Format/Info : Advanced Audio Codec Low Complexity with Spectral Band Replication
Commercial name : HE-AAC
Format settings : Explicit
Codec ID : A_AAC-2
Duration : 24 min 4 s
Bit rate : 112 kb/s
Channel(s) : 2 channels
Channel layout : L R
Sampling rate : 96.0 kHz
Frame rate : 46.875 FPS (2048 SPF)
Compression mode : Lossy
Delay relative to video : 4 ms
Stream size : 19.3 MiB (11%)
Language : Japanese
Default : Yes
Forced : No

Text
ID : 3
Format : ASS
Codec ID : S_TEXT/ASS
Codec ID/Info : Advanced Sub Station Alpha
Duration : 23 min 22 s
Bit rate : 198 b/s
Count of elements : 417
Compression mode : Lossless
Stream size : 34.0 KiB (0%)
Default : No
Forced : Yes

Screenshots



Install Attachment and enjoy


Download Miss Kobayashi's Dragon Maid_BD720p_English Subbed_(HEVC_10bit_SmoodFlamez) torrent




Comments   (please login to add your comment!)

raw scene     bella     discography     frank herberts dune 3 part mini series     hotel transylvania     lay     exotic4k darcia lee     the big bang theory episode 6     zoey     julie skyhigh     twin     patty michova     chanel preston     the edge of seventeen     hindi mkvcage     playing by heart 1998     buttsluts     oct     uncensored     kayla kayden touch     xxx un     korean     crazy ass sluts     arlo     


Home - Browse Torrents

Made with love by an Extratorrent Fan!