extratorrent - A Fan Made Alternative Login   |   Register
Important Information
Registrations are open now
-------------------------------------

Please click here to register with Extratorrent2 to recieve latest updates, add bookmarks and to post comments.

Friends
Friends

1) ProxyFix

Extratorrent2 > Categories > Movies > Juliet Naked 2018 1080p WEB-DL DD 5.1 x264 [MW] torrent


Browse Movies torrents

Juliet Naked 2018 1080p WEB-DL DD 5.1 x264 [MW] torrent


Download torrent: Download Juliet Naked 2018 1080p WEB-DL DD 5.1 x264 [MW] torrent Magnet link Bookmark Torrent: Juliet Naked 2018 1080p WEB-DL DD 5.1 x264 [MW]   Juliet Naked 2018 1080p WEB-DL DD 5.1 x264 [MW] torrent
Info hash: 4DA0CFA329AC63468D10BB53FA652AD99E835C70
Category: Categories > Movies
Trackers:
View all torrent trackers >
Health:
 seeds: 21 ,  leechers: 5 |  Update >
Torrent language: English English
Total Size: 1.7 GB
Files List:
1    View torrent files >
Uploader:
moviezworldz
Torrent added: November 16, 2018, 4:30 pm
Tags: Comedy, Drama, Music
Users rating: ---, not rated. please login to rate.

Download Juliet Naked 2018 1080p WEB-DL DD 5.1 x264 [MW] torrent



Torrent Description





General
Format : Matroska
Format version : Version 4 / Version 2
File size : 1.74 GiB
Duration : 1 h 37 min

Video
ID : 1
Format : AVC
Format/Info : Advanced Video Codec
Format profile :
Format settings : CABAC / 4 Ref Frames
Format settings, CABAC : Yes
Format settings, RefFrames : 4 frames
Codec ID : V_MPEG4/ISO/AVC
Duration : 1 h 37 min
Bit rate : 2 200 kb/s
Width : 1 912 pixels
Height : 796 pixels
Display aspect ratio : 2.40:1
Frame rate mode : Constant
Frame rate : 23.976 (24000/1001) FPS
Color space : YUV
Chroma subsampling : 4:2:0
Bit depth : 8 bits
Scan type : Progressive
Bits/(Pixel*Frame) : 0.060
Stream size : 1.48 GiB (85%)
Writing library : x264 core 155 r2901 7d0ff22
Default : Yes
Forced : No

Audio
ID : 2
Format : AC-3
Format/Info : Audio Coding 3
Codec ID : A_AC3
Duration : 1 h 37 min
Bit rate mode : Constant
Bit rate : 384 kb/s
Channel(s) : 6 channels
Channel positions : Front: L C R, Side: L R, LFE
Sampling rate : 48.0 kHz
Frame rate : 31.250 FPS (1536 SPF)
Bit depth : 16 bits
Compression mode : Lossy
Stream size : 268 MiB (15%)
Language : English
Service kind : Complete Main
Default : Yes
Forced : No


Click To Enlarge Image









Download Juliet Naked 2018 1080p WEB-DL DD 5.1 x264 [MW] torrent


Related Torrents


Comments   (please login to add your comment!)

dont tell mom the     uri     digital playground     angela white 2018     unlocked 2017 bluray     breath     leader     jade bird     vestacia jon quil     albela     faster fene     roccosiffredi 2018     familystrokes mom     aida64 keygen     king 1080p     brooklyn s01     one piece 783     bihari     madison ivy jae     nude mom     aunt     leigh raven adriana chechik     the goodies     017     


Home - Browse Torrents

Made with love by an Extratorrent Fan!